#TITLE:Disconnected Mobius;
#SUBTITLE:;
#ARTIST:Inspector K;
#TITLETRANSLIT:;
#SUBTITLETRANSLIT:;
#ARTISTTRANSLIT:;
#CREDIT:;
#BANNER:disconnected mobius.png;
#BACKGROUND:disconnected mobius-bg.png;
#LYRICSPATH:;
#CDTITLE:ITG.png;
#MUSIC:Disconnected Mobius.mp3;
#OFFSET:-0.118;
#SAMPLESTART:82.280;
#SAMPLELENGTH:15.880;
#SELECTABLE:YES;
#BPMS:0.000=349.999;
#STOPS:;
#BGCHANGES:;
// cache tags:
#FIRSTBEAT:0.000;
#LASTBEAT:676.000;
#SONGFILENAME:Songs/nhac/Disconnected Mobius/Disconnected Mobius.sm;
#HASMUSIC:1;
#HASBANNER:1;
#MUSICLENGTH:116.991;
// end cache tags

//---------------dance-single - ----------------
#NOTES:
     dance-single:
     :
     Challenge:
     1:
     1.000,1.000,1.000,0.889,1.000,1327.000,226.000,104.000,0.000,71.000:
0110
0000
0110
0000
,
1001
1001
0000
0110
,
0000
0000
0000
0000
1001
0100
0010
0100
1001
0000
0000
0000
0000
0000
0000
0000
,
1001
0000
0110
0000
,
1001
0000
1001
0000
,
1001
1001
0000
0110
,
1001
0100
0010
0100
1001
0000
0000
0000
0000
0000
0000
0000
1001
0000
0000
0000
,
0000
0000
0000
0000
1001
0100
0010
1000
0001
0100
0010
1000
0001
0100
0010
1000
,
0001
1000
0000
0000
0000
0000
0000
0000
0000
0000
0000
0000
0000
0000
0000
0000
0000
0000
0000
0000
0000
0000
0000
0000
0000
0000
0000
0000
0000
0000
0000
0000
0001
1000
0000
0000
0000
0000
0000
0000
0000
0000
0000
0000
0000
0000
0000
0000
0000
0000
0000
0000
0000
0000
0000
0000
0000
0000
0000
0000
0000
0000
0000
0000
,
0001
1000
0000
0000
0000
0000
0000
0000
0000
0000
0000
0000
0000
0000
0000
0000
0000
0000
0000
0000
0000
0000
0000
0000
0000
0000
0000
0000
0000
0000
0000
0000
0001
1000
0000
0000
0000
0000
0000
0000
0000
0000
0000
0000
0000
0000
0000
0000
0000
0000
0000
0000
0000
0000
0000
0000
0000
0000
0000
0000
0000
0000
0000
0000
,
0001
1000
0000
0000
0000
0000
0000
0000
0000
0000
0000
0000
0000
0000
0000
0000
0000
0000
0000
0000
0000
0000
0000
0000
0000
0000
0000
0000
0000
0000
0000
0000
1000
0001
0000
0000
0000
0000
0000
0000
0000
0000
0000
0000
0000
0000
0000
0000
0000
0000
0000
0000
0000
0000
0000
0000
0000
0000
0000
0000
0000
0000
0000
0000
,
1000
0001
0000
0000
0000
0000
0000
0000
0000
0000
0000
0000
0000
0000
0000
0000
0000
0000
0000
0000
0000
0000
0000
0000
0000
0000
0000
0000
0000
0000
0000
0000
1000
0001
0000
0000
0000
0000
0000
0000
0000
0000
0000
0000
0000
0000
0000
0000
0000
0000
0000
0000
0000
0000
0000
0000
0000
0000
0000
0000
0000
0000
0000
0000
,
1000
0001
0000
0000
0000
0000
0000
0000
0000
0000
0000
0000
0000
0000
0000
0000
0000
0000
0000
0000
0000
0000
0000
0000
0000
0000
0000
0000
0000
0000
0000
0000
1000
0001
0000
0000
0000
0000
0000
0000
0000
0000
0000
0000
0000
0000
0000
0000
0000
0000
0000
0000
0000
0000
0000
0000
0000
0000
0000
0000
0000
0000
0000
0000
,
1000
0001
0000
0000
0000
0000
0000
0000
0000
0000
0000
0000
0000
0000
0000
0000
0000
0000
0000
0000
0000
0000
0000
0000
0000
0000
0000
0000
0000
0000
0000
0000
1000
0100
0000
0000
0000
0000
0000
0000
0000
0000
0000
0000
0000
0000
0000
0000
0000
0000
0000
0000
0000
0000
0000
0000
0000
0000
0000
0000
0000
0000
0000
0000
,
0010
0001
0000
0000
0000
0000
0000
0000
0000
0000
0000
0000
0000
0000
0000
0000
0000
0000
0000
0000
0000
0000
0000
0000
0000
0000
0000
0000
0000
0000
0000
0000
0010
0100
0000
0000
0000
0000
0000
0000
0000
0000
0000
0000
0000
0000
0000
0000
0000
0000
0000
0000
0000
0000
0000
0000
0000
0000
0000
0000
0000
0000
0000
0000
,
0001
0100
0000
0000
0000
0000
0000
0000
0000
0000
0000
0000
0000
0000
0000
0000
0000
0000
0000
0000
0000
0000
0000
0000
0000
0000
0000
0000
0000
0000
0000
0000
1000
0100
0000
0000
0000
0000
0000
0000
0000
0000
0000
0000
0000
0000
0000
0000
0000
0000
0000
0000
0000
0000
0000
0000
0000
0000
0000
0000
0000
0000
0000
0000
,
0020
0130
0000
0000
0000
0000
0000
0000
0000
0000
0000
0000
0000
0000
0000
0000
0000
0000
0000
0000
0000
0000
0000
0000
0000
0000
0000
0000
0000
0000
0000
0000
0001
0100
0000
0000
0000
0000
0000
0000
0000
0000
0000
0000
0000
0000
0000
0000
0100
0010
0000
0000
0000
0000
0000
0000
0000
0000
0000
0000
0000
0000
0000
0000
,
0010
1000
0000
0000
0000
0000
0000
0000
0000
0000
0000
0000
0000
0000
0000
0000
1000
0100
0000
0000
0000
0000
0000
0000
0000
0000
0000
0000
0000
0000
0000
0000
0100
0010
0000
0000
0000
0000
0000
0000
0000
0000
0000
0000
0000
0000
0000
0000
0010
0001
0000
0000
0000
0000
0000
0000
0000
0000
0000
0000
0000
0000
0000
0000
,
0001
0100
0000
0000
0000
0000
0000
0000
0000
0000
0000
0000
0000
0000
0000
0000
0100
0010
0000
0000
0000
0000
0000
0000
0000
0000
0000
0000
0000
0000
0000
0010
1000
0000
0000
0000
0000
0000
0000
0000
0000
0000
0000
0000
0000
0000
0000
0000
0100
0010
0000
0000
0000
0000
0000
0000
0000
0000
0000
0000
0000
0000
0000
0000
,
0001
0100
0000
0000
0000
0000
0000
0000
0000
0000
0000
0000
0000
0000
0000
0000
0010
0001
0000
0000
0000
0000
0000
0000
0000
0000
0000
0000
0000
0000
0000
0000
1000
0100
0000
0000
0000
0000
0000
0000
0000
0000
0000
0000
0000
0000
0000
0000
0010
0100
0000
0000
0000
0000
0000
0000
0000
0000
0000
0000
0000
0000
0000
0000
,
0001
0100
0000
0000
0000
0000
0000
0000
0000
0000
0000
0000
0000
0000
0000
0000
0100
1000
0000
0000
0000
0000
0000
0000
0000
0000
0000
0000
0000
0000
0000
0000
0100
0010
0000
0000
0000
0000
0000
0000
0000
0000
0000
0000
0000
0000
0000
0000
0100
0001
0000
0000
0000
0000
0000
0000
0000
0000
0000
0000
0000
0000
0000
0000
,
0100
1000
0000
0000
0000
0000
0000
0000
0000
0000
0000
0000
0000
0000
0000
0000
0100
0010
0000
0000
0000
0000
0000
0000
0000
0000
0000
0000
0000
0000
0000
0000
0010
0100
0000
0000
0000
0000
0000
0000
0000
0000
0000
0000
0000
0000
0000
0000
0010
1000
0000
0000
0000
0000
0000
0000
0000
0000
0000
0000
0000
0000
0000
0000
,
0220
0000
0000
0000
,
0000
0000
0000
0000
,
1330
0100
0010
0001
0010
0100
1000
0100
,
0010
0002
0023
0230
1300
0002
2003
3001
,
0100
0020
0130
0010
1000
0001
0100
0020
,
1030
0001
0100
0010
1000
0001
0100
0010
,
1000
0100
1000
0100
2000
3200
1300
0100
,
2000
3100
1000
0100
0010
0001
0010
0001
,
0010
0001
0010
0002
0013
0002
1003
0001
,
1000
0001
1000
0001
1000
0020
0130
0010
,
0100
0010
0100
0010
0100
0001
1000
0001
,
1000
0010
0100
0010
0100
1000
0100
1000
,
0100
0010
0100
0010
0100
0010
0001
0010
,
0001
0010
0001
1000
0100
0010
0001
1000
,
1001
0100
0010
1001
0100
0010
1001
0100
0010
1001
0100
0010
,
1001
0000
1000
0100
0010
0001
1000
0100
0010
0001
1000
0100
0010
0001
1000
0100
,
0010
0001
0010
0100
1000
0001
0010
0100
1000
0001
0010
0100
1000
0001
0010
0100
,
1000
0010
0100
0001
1000
0010
0100
0001
1000
0010
0100
0001
1000
0010
0100
0001
,
1000
0100
0010
0001
1000
0200
0310
0001
,
1000
0100
0010
0001
1000
0100
0010
0001
,
1000
0100
0010
0001
0001
0010
0100
1000
,
0001
0010
0100
1000
0001
0010
0100
1000
,
0001
0010
0100
1000
0001
0010
0100
1000
,
0010
0100
0001
1000
0010
0100
0001
1000
,
0010
0100
0001
1000
0010
0100
0001
1000
,
0100
0010
1000
0001
0100
0010
1000
0001
,
0100
0010
1000
0002
0103
0010
1000
0001
,
0100
0010
1000
0001
1000
0100
0010
0100
,
0001
1000
0100
0010
0001
1000
0100
0010
,
0001
1000
0100
0010
1000
0001
0010
0100
,
2002
0000
0000
0000
,
0000
0000
0000
0000
,
3003
0000
0000
0000
,
0000
0000
0000
0000
0000
0000
0000
2020
,
0001
0100
0000
0000
3030
0000
0202
0000
0010
1000
0000
0000
0303
0000
0220
0000
,
1000
0001
0000
0000
0000
0000
0000
0000
0001
1000
0000
0000
0330
0000
2200
0000
,
0010
0001
0000
0000
3322
0000
0000
0000
0100
1000
0033
0000
2002
0000
0000
0000
,
0010
0100
0000
0000
3003
0000
0022
0000
1000
0100
0000
0000
0033
0000
2020
0000
,
0001
0100
0000
0000
3232
0000
0000
0000
0010
1303
0000
0000
2200
0000
0000
0001
,
3310
0000
0220
0000
0000
0000
0000
0001
1330
0000
2002
0000
0000
0000
0000
0010
,
3103
0000
2200
0000
0000
0000
0000
0001
3310
0000
0022
0000
0000
0000
0000
0100
,
1033
0000
0202
0000
0000
0000
0000
0010
1303
0000
2020
0000
0000
0000
0000
0001
,
3130
0000
2002
0000
0000
0000
0000
0100
3013
0000
0220
0000
0000
0000
0000
1000
,
0331
0000
0000
0000
0000
0000
0000
0010
0100
0000
0000
0000
0000
0000
0000
0000
,
1000
0100
0000
0000
0000
0000
0000
0000
0100
0010
0000
0000
0000
0000
0000
0000
,
0010
0001
0000
0000
0000
0000
0000
0000
0001
0100
0000
0000
0000
0000
0000
0000
,
0100
0010
0000
0000
0000
0000
0000
0000
0010
1000
0000
0000
0000
0000
0000
0000
,
1000
0001
0000
0000
0000
0000
0000
0000
1000
0100
0000
0000
0000
0000
0000
0000
,
0100
0010
0000
0000
0000
0000
0000
0000
0010
0001
0000
0000
0000
0000
0000
0000
,
0001
0100
0000
0000
0000
0000
0000
0000
0100
0010
0000
0000
0000
0000
0000
0100
,
0110
1000
0100
0010
0001
1000
0100
0010
,
0001
1000
0100
0010
0001
0010
0100
1000
,
0001
0010
0100
1000
0001
0010
0100
1000
,
0100
0010
1000
0001
0100
0010
1000
0001
,
0100
0010
1000
0001
0010
0100
0001
1000
,
0010
0100
0001
1000
0010
0100
0001
1000
,
0100
0010
1000
0001
0010
0100
0001
1000
,
0100
0020
0031
0010
0100
1000
0001
1000
,
0001
1000
0100
1000
0100
0010
0100
0010
,
0001
0010
0001
0100
0001
0100
0010
0100
,
0010
1000
0010
1000
0001
1000
0001
1000
,
0100
1000
0100
0010
0100
0010
0001
0010
,
0001
0100
0001
0100
0010
0100
0010
1000
,
0010
1000
0001
1000
0001
0010
0100
0010
,
0100
1000
0100
1000
0100
0010
0001
0010
,
1100
0100
0110
0010
0011
0001
0101
0100
,
2220
0000
0000
0000
,
3332
0000
0000
0000
,
0223
0000
0000
0000
,
2332
0000
0000
0000
,
3223
0000
0000
0000
,
2332
0000
0000
0000
,
3223
0000
0000
0000
,
2332
0000
0000
0000
,
3223
0000
0000
0000
,
2332
0000
0000
0000
,
3223
0000
0000
0000
,
2332
0000
0000
0000
,
3223
0000
0000
0000
,
2332
0000
0000
0000
,
3223
0000
0000
0000
,
2332
0000
0000
0000
,
3113
1010
1100
0011
,
1100
0110
1100
0110
,
0011
0101
0110
1100
,
0110
0011
0101
1010
,
0101
0011
1100
1010
,
1100
1010
0110
1001
,
1100
0011
1010
0101
,
0011
1100
0011
1010
,
0101
1010
1100
0011
,
1100
0011
0101
1010
,
0110
1001
1100
0110
,
0011
0101
0110
1100
,
0110
0011
0110
1100
,
0110
0101
0110
1100
,
0101
1100
0101
0011
,
0110
1000
0001
1000
0001
1000
0001
1000
0001
1000
0001
1000
0001
1000
0001
1000
,
1001
0100
0000
0000
0000
0000
0000
0000
0110
0100
0000
0000
0000
0000
0000
0000
,
1001
0001
0000
0000
0000
0000
0000
0000
1010
0010
0000
0000
0000
0000
0000
0000
,
0101
0001
0000
0000
0000
0000
0000
0000
0011
0001
0000
0000
0000
0000
0000
0000
,
1100
0100
0000
0000
0000
0000
0000
0000
0110
0010
0000
0000
0000
0000
0000
0000
,
1001
0001
0000
0000
0000
0000
0000
0000
1100
0100
0110
0010
0011
0001
0101
0100
,
0110
0010
1010
1000
1100
0100
0110
0010
0011
0001
0101
0100
0110
0010
1010
1000
,
1100
0100
0110
0010
0011
0001
0101
0100
0110
0010
1010
1000
1100
0100
0110
0010
,
0011
0001
0101
0100
0110
0010
1010
1000
1100
0100
0110
0010
0011
0001
0101
0100
,
0110
0010
1010
1000
1001
0001
0101
0100
0110
0010
1010
1000
1001
0001
0101
0100
,
0110
0010
1010
1000
1100
0100
0110
0010
0011
0001
0101
0100
0110
0010
1010
1000
,
1100
0100
0110
0010
0011
0001
0101
0100
0110
0010
1010
1000
1001
0000
0000
0000
,
0000
1001
1001
0110
,
0110
1111
1001
1001
,
1111
1001
1001
1001
,
1111
0000
1111
1000
,
1000
1111
1110
1010
,
1010
1110
1111
1001
,
1001
1111
0000
1111
,
0110
0110
1111
0000
,
1111
0110
0110
0110
,
1000
0100
1000
0100
1000
0100
1000
0100
1000
0100
1000
0100
1000
0100
1000
0100
,
1000
0100
0010
0001
1000
0200
0310
0001
1000
0100
0010
0001
1000
0100
0010
0002
,
1003
0100
0010
0001
0010
0100
1000
0001
0010
0100
1000
0001
0010
0100
1000
0001
,
0010
0100
1000
0001
0010
0100
1000
0010
0001
0020
0032
0023
0032
0013
0001
0010
,
0001
0010
0001
0010
0001
1000
0001
1000
0001
1000
0001
1000
0001
1000
0001
1000
,
0001
1000
0001
1000
0001
1000
0001
1000
0100
0010
0100
0010
1000
0001
1000
0001
,
1000
0100
0010
0001
0010
0100
1000
0100
0010
0001
0010
0100
1000
0100
0010
0001
,
1000
0100
0010
0001
1000
0100
0010
0001
1000
0100
0010
0001
1000
0100
0010
0001
,
1000
0100
0010
0001
1000
0100
0010
0001
1000
0100
0010
0001
1000
0100
0010
0001
,
1000
0100
0010
0001
1000
0100
0010
0001
1000
0100
0010
0001
1000
0100
0010
0001
1000
0100
0010
0001
1000
0100
0010
0001
,
1000
0100
0010
0001
1000
0100
0010
0001
1000
0100
0010
0001
1000
0100
0010
0001
1000
0100
0010
0001
1000
0100
0010
0001
,
1000
0100
0010
0001
1000
0100
0010
0001
1000
0100
0010
0001
1000
0100
0010
0001
1000
0100
0010
0001
1000
0100
0010
0001
,
1000
0100
0010
0001
1000
0100
0010
0001
1000
0100
0010
0001
1000
0100
0010
0001
1000
0100
0020
0031
1000
0100
0010
0001
1000
0100
0010
0001
1000
0100
0010
0001
,
0000
0000
0000
0000
,
0001
0010
0100
1000
0001
0010
0100
1000
0001
0010
0100
1000
0001
0010
0100
1000
0001
0010
0100
1000
0001
0010
0100
1000
0001
0020
0130
1000
0001
0010
0100
1000
,
0000
0000
0000
0000
,
1000
0100
0010
0001
1000
0100
0010
0001
1000
0100
0010
0001
1000
0100
0010
0001
1000
0100
0010
0001
1000
0100
0010
0001
1000
0100
0010
0001
1000
0100
0010
0001
,
0000
0000
0000
0000
,
0001
0010
0100
1000
0001
0010
0100
1000
0001
0010
0100
1000
0001
0010
0100
1000
0001
0010
0100
1000
0001
0010
0100
1000
0001
0010
0100
1000
0001
0010
0100
1000
,
0000
0000
0000
0000
,
1001
0000
1001
0000
,
1001
1001
0000
1001
,
0000
1001
0000
1001
,
0000
1001
0000
1001
,
0000
0000
0000
0000
0000
0000
0000
0000
1001
0000
0000
0000
0000
0000
0000
0000
1001
0000
0000
0000
0000
0000
0000
0000
1000
0100
0010
0001
1000
0100
0010
0001
,
1000
0200
0320
0031
1000
0100
0010
0001
1000
0100
0010
0001
0010
0100
1000
0001
0010
0100
1000
0001
0010
0100
1000
0001
0020
0130
1000
0001
0010
0100
1000
0001
,
0010
0000
0000
0000
0000
0000
0100
0000
0000
0000
0000
0000
1000
0000
0000
0000
0100
0000
0000
0000
0010
0000
0000
0000
0001
0000
0000
0000
1000
0000
0000
0000
0100
0000
0000
0000
0010
0000
0000
0000
0001
0000
0000
0000
1000
0000
0000
0000
0100
0000
0000
0000
0010
0000
0000
0000
0001
0000
0000
0000
1000
0000
0000
0000
0100
0000
0000
0000
0010
0000
0000
0000
0001
0000
0000
0000
1000
0000
0000
0000
0100
0000
0000
0000
0010
0000
0000
0000
0001
0000
0000
0000
0010
0000
0000
0000
0100
0000
0000
0000
1000
0000
0000
0000
0001
0000
0000
0000
0010
0000
0000
0000
0100
0000
0000
0000
1000
0000
0000
0000
0001
0000
0000
0000
0010
0000
0000
0000
0100
0000
0000
0000
1000
0000
0000
0000
0001
0000
0000
0000
0010
0000
0000
0000
0100
0000
0000
0000
1000
0000
0000
0000
0001
0000
0000
0000
0010
0000
0000
0000
0100
0000
0000
0000
1000
0000
0000
0000
0001
0000
0000
0000
0010
0000
0000
0000
0100
0000
0000
0000
1000
0000
0000
0000
0001
0000
0000
0000
0010
0000
0000
0000
,
0100
1000
0100
0010
0001
1000
0100
0010
0001
1000
0100
0010
0001
1000
0100
0010
0001
1000
0100
0010
0001
1000
0100
0010
0001
1000
0100
0010
0001
1000
0100
0010
0001
0010
0100
1000
0001
0010
0100
1000
0001
0010
0100
1000
0001
0010
0100
1000
0001
0010
0100
1000
0001
0010
0100
1000
0001
0010
0100
1000
0001
0010
0100
1000
,
2222
0000
0000
0000
,
3333
0000
0000
0000
;
